Jump to content

VIP Kартина - для состоятельных парней


Recommended Posts

обращаюсь к техникам, готов платить больше за не ужатые каналы!  

пустите их паралельно с пакетом каналов с невысоким битрейтом :)

Link to comment
Share on other sites

обращаюсь к техникам, готов платить больше за не ужатые каналы!  

пустите их паралельно с пакетом каналов с невысоким битрейтом :)

Картина и так дороже конкурирующих компаний. Если я выбираю премиум битрейт, я бы ожидал видеть все SD-каналы с битрейтом 2.5 мбит/с и выше, включая архив. На деле большинство идут с битрейтом 1.5 мбит/с, а некоторые (типа Никелодеон) вообще 1.2 мбит/с. А те каналы, кототые в лайф идут с нормальным битрейтом, в архиве ужаты в 2 раза.

Link to comment
Share on other sites

обращаюсь к техникам, готов платить больше за не ужатые каналы!  

пустите их паралельно с пакетом каналов с невысоким битрейтом :)

Это конечно обращение должно быть не к техникам а к руководству компании. Но скажу вам сразу, что это обсуждать даже не имеет смысла. 

 

 

обращаюсь к техникам, готов платить больше за не ужатые каналы!  

пустите их паралельно с пакетом каналов с невысоким битрейтом :)

Картина и так дороже конкурирующих компаний. Если я выбираю премиум битрейт, я бы ожидал видеть все SD-каналы с битрейтом 2.5 мбит/с и выше, включая архив. На деле большинство идут с битрейтом 1.5 мбит/с, а некоторые (типа Никелодеон) вообще 1.2 мбит/с. А те каналы, кототые в лайф идут с нормальным битрейтом, в архиве ужаты в 2 раза.

 

Специально проверил каналы в прямом вещание, Никелодеон не меньше 2,5 mb/s. Все основные каналы тоже не меньше чем 2,5 в Премиум. Может конечно быть хуже картинка на интернациональных каналах или на определенных передачах, это обычно связанно с плохим качеством на самом источнике. Где вы увидели 1,2 или 1,5 в Премиум мне не понятно!?

Что касается архива тут я частично с вами согласен. Архив в качестве Премиум не отличается от архива в Стандарте. Но при этом и в таком качестве картинка не меньше 1,5 mb/s.

Link to comment
Share on other sites

Что касается архива тут я частично с вами согласен. Архив в качестве Премиум не отличается от архива в Стандарте.Где вы увидели 1,2 или 1,5 в Премиум мне не понятно!?

 

Вы правы, я смотрю в основном архив, видимо ошибся. Хотелось бы чтобы в архиве битрейт был как в прямом вещании, хотя бы за последние 48 часов.

Link to comment
Share on other sites

 

Что касается архива тут я частично с вами согласен. Архив в качестве Премиум не отличается от архива в Стандарте.Где вы увидели 1,2 или 1,5 в Премиум мне не понятно!?

 

Вы правы, я смотрю в основном архив, видимо ошибся. Хотелось бы чтобы в архиве битрейт был как в прямом вещании, хотя бы за последние 48 часов.

 

Кстати это интересный момент! Правда не знаю на сколько технически тяжело или легко такое реализовать. Пожелание конечно передам дальше!

Link to comment
Share on other sites

Не вижу на Дожде практически никакой разницы между архив/не архив премиум/стандарт разве аудио чуть лучше.

ffprobe.exe tv_rain_archive_std.ts
~~~~~~~~~~~~~~~~~~~~~~~~~~~~~~~~~~
ffprobe version N-66690-gf3296b9 Copyright (c) 2007-2014 the FFmpeg developers
  built on Oct  8 2014 01:09:41 with gcc 4.9.1 (GCC)
  configuration: --enable-gpl --enable-version3 --disable-w32threads --enable-avisynth --enable-bzlib --enable-fontconfig --enable-frei0r --enable-gnutls --enable-iconv --enable-libass --enable-libbluray --enable-libbs2b --enable-libcaca --enable-libfreetype --enable-li
bgme --enable-libgsm --enable-libilbc --enable-libmodplug --enable-libmp3lame --enable-libopencore-amrnb --enable-libopencore-amrwb --enable-libopenjpeg --enable-libopus --enable-librtmp --enable-libschroedinger --enable-libsoxr --enable-libspeex --enable-libtheora --en
able-libtwolame --enable-libvidstab --enable-libvo-aacenc --enable-libvo-amrwbenc --enable-libvorbis --enable-libvpx --enable-libwavpack --enable-libwebp --enable-libx264 --enable-libx265 --enable-libxavs --enable-libxvid --enable-zlib
  libavutil      54.  9.100 / 54.  9.100
  libavcodec     56.  3.101 / 56.  3.101
  libavformat    56.  7.104 / 56.  7.104
  libavdevice    56.  1.100 / 56.  1.100
  libavfilter     5.  1.103 /  5.  1.103
  libswscale      3.  1.100 /  3.  1.100
  libswresample   1.  1.100 /  1.  1.100
  libpostproc    53.  1.100 / 53.  1.100
[mpegts @ 048a58c0] PES packet size mismatch
Input #0, mpegts, from 'tv_rain_archive_std.ts':
  Duration: 00:00:53.28, start: 6777.627633, bitrate: 2784 kb/s
  Program 1
    Stream #0:0[0x44]: Audio: aac ([15][0][0][0] / 0x000F), 48000 Hz, stereo, fltp, 161 kb/s
    Stream #0:1[0x45]: Video: h264 (High) ([27][0][0][0] / 0x001B), yuv420p, 720x576 [SAR 64:45 DAR 16:9], 25 fps, 25 tbr, 90k tbn, 50 tbc

ffprobe.exe tv_rain_archive_premium.ts
~~~~~~~~~~~~~~~~~~~~~~~~~~~~~~~~~~~~~~
ffprobe version N-66690-gf3296b9 Copyright (c) 2007-2014 the FFmpeg developers
  built on Oct  8 2014 01:09:41 with gcc 4.9.1 (GCC)
  configuration: --enable-gpl --enable-version3 --disable-w32threads --enable-avisynth --enable-bzlib --enable-fontconfig --enable-frei0r --enable-gnutls --enable-iconv --enable-libass --enable-libbluray --enable-libbs2b --enable-libcaca --enable-libfreetype --enable-li
bgme --enable-libgsm --enable-libilbc --enable-libmodplug --enable-libmp3lame --enable-libopencore-amrnb --enable-libopencore-amrwb --enable-libopenjpeg --enable-libopus --enable-librtmp --enable-libschroedinger --enable-libsoxr --enable-libspeex --enable-libtheora --en
able-libtwolame --enable-libvidstab --enable-libvo-aacenc --enable-libvo-amrwbenc --enable-libvorbis --enable-libvpx --enable-libwavpack --enable-libwebp --enable-libx264 --enable-libx265 --enable-libxavs --enable-libxvid --enable-zlib
  libavutil      54.  9.100 / 54.  9.100
  libavcodec     56.  3.101 / 56.  3.101
  libavformat    56.  7.104 / 56.  7.104
  libavdevice    56.  1.100 / 56.  1.100
  libavfilter     5.  1.103 /  5.  1.103
  libswscale      3.  1.100 /  3.  1.100
  libswresample   1.  1.100 /  1.  1.100
  libpostproc    53.  1.100 / 53.  1.100
[mpegts @ 028158a0] PES packet size mismatch
Input #0, mpegts, from 'tv_rain_archive_premium.ts':
  Duration: 00:00:41.96, start: 6711.054722, bitrate: 2770 kb/s
  Program 1
    Stream #0:0[0x44]: Audio: aac ([15][0][0][0] / 0x000F), 48000 Hz, stereo, fltp, 161 kb/s
    Stream #0:1[0x45]: Video: h264 (High) ([27][0][0][0] / 0x001B), yuv420p, 720x576 [SAR 64:45 DAR 16:9], 25 fps, 25 tbr, 90k tbn, 50 tbc

ffprobe.exe tv_rain_live_std.ts
~~~~~~~~~~~~~~~~~~~~~~~~~~~~~~~
ffprobe version N-66690-gf3296b9 Copyright (c) 2007-2014 the FFmpeg developers
  built on Oct  8 2014 01:09:41 with gcc 4.9.1 (GCC)
  configuration: --enable-gpl --enable-version3 --disable-w32threads --enable-avisynth --enable-bzlib --enable-fontconfig --enable-frei0r --enable-gnutls --enable-iconv --enable-libass --enable-libbluray --enable-libbs2b --enable-libcaca --enable-libfreetype --enable-li
bgme --enable-libgsm --enable-libilbc --enable-libmodplug --enable-libmp3lame --enable-libopencore-amrnb --enable-libopencore-amrwb --enable-libopenjpeg --enable-libopus --enable-librtmp --enable-libschroedinger --enable-libsoxr --enable-libspeex --enable-libtheora --en
able-libtwolame --enable-libvidstab --enable-libvo-aacenc --enable-libvo-amrwbenc --enable-libvorbis --enable-libvpx --enable-libwavpack --enable-libwebp --enable-libx264 --enable-libx265 --enable-libxavs --enable-libxvid --enable-zlib
  libavutil      54.  9.100 / 54.  9.100
  libavcodec     56.  3.101 / 56.  3.101
  libavformat    56.  7.104 / 56.  7.104
  libavdevice    56.  1.100 / 56.  1.100
  libavfilter     5.  1.103 /  5.  1.103
  libswscale      3.  1.100 /  3.  1.100
  libswresample   1.  1.100 /  1.  1.100
  libpostproc    53.  1.100 / 53.  1.100
[mpegts @ 049958c0] PES packet size mismatch
Input #0, mpegts, from 'tv_rain_live_std.ts':
  Duration: 00:00:36.28, start: 6384.756944, bitrate: 2748 kb/s
  Program 1
    Stream #0:0[0x44]: Audio: aac ([15][0][0][0] / 0x000F), 48000 Hz, stereo, fltp, 154 kb/s
    Stream #0:1[0x45]: Video: h264 (High) ([27][0][0][0] / 0x001B), yuv420p, 720x576 [SAR 64:45 DAR 16:9], 25 fps, 25 tbr, 90k tbn, 50 tbc

ffprobe.exe tv_rain_live_premium.ts
~~~~~~~~~~~~~~~~~~~~~~~~~~~~~~~~~~~
ffprobe version N-66690-gf3296b9 Copyright (c) 2007-2014 the FFmpeg developers
  built on Oct  8 2014 01:09:41 with gcc 4.9.1 (GCC)
  configuration: --enable-gpl --enable-version3 --disable-w32threads --enable-avisynth --enable-bzlib --enable-fontconfig --enable-frei0r --enable-gnutls --enable-iconv --enable-libass --enable-libbluray --enable-libbs2b --enable-libcaca --enable-libfreetype --enable-li
bgme --enable-libgsm --enable-libilbc --enable-libmodplug --enable-libmp3lame --enable-libopencore-amrnb --enable-libopencore-amrwb --enable-libopenjpeg --enable-libopus --enable-librtmp --enable-libschroedinger --enable-libsoxr --enable-libspeex --enable-libtheora --en
able-libtwolame --enable-libvidstab --enable-libvo-aacenc --enable-libvo-amrwbenc --enable-libvorbis --enable-libvpx --enable-libwavpack --enable-libwebp --enable-libx264 --enable-libx265 --enable-libxavs --enable-libxvid --enable-zlib
  libavutil      54.  9.100 / 54.  9.100
  libavcodec     56.  3.101 / 56.  3.101
  libavformat    56.  7.104 / 56.  7.104
  libavdevice    56.  1.100 / 56.  1.100
  libavfilter     5.  1.103 /  5.  1.103
  libswscale      3.  1.100 /  3.  1.100
  libswresample   1.  1.100 /  1.  1.100
  libpostproc    53.  1.100 / 53.  1.100
Input #0, mpegts, from 'tv_rain_live_premium.ts':
  Duration: 00:00:48.76, start: 6438.219267, bitrate: 2737 kb/s
  Program 1
    Stream #0:0[0x44](rus): Audio: aac ([15][0][0][0] / 0x000F), 48000 Hz, stereo, fltp, 182 kb/s
    Stream #0:1[0x45]: Video: h264 (High) ([27][0][0][0] / 0x001B), yuv420p, 720x576 [SAR 64:45 DAR 16:9], 25 fps, 25 tbr, 90k tbn, 50 tbc

Link to comment
Share on other sites

обращаюсь к техникам, готов платить больше за не ужатые каналы!  

пустите их паралельно с пакетом каналов с невысоким битрейтом :)

Коллега передал, но так же прошу отписать на info@kartina.tv

Link to comment
Share on other sites

 

Не вижу на Дожде практически никакой разницы между архив/не архив премиум/стандарт разве аудио чуть лучше.

прально, на дожде нету разницы (да не смотрю я эдокое)
А вот как говорится почувствуй разницу:
Культура - Видео: AVC, 704x528, 25 fps 2 600 Kbps – live
Видео: AVC, 704x528, 25 fps 1 500 Kbps – архив

  
Edited by dean8
Link to comment
Share on other sites

 

 

 

 

 

 

 

 

Специально проверил каналы в прямом вещание, Никелодеон не меньше 2,5 mb/s. Все основные каналы тоже не меньше чем 2,5 в Премиум.

 

да вы не туда смотрите! вот вам "премиум Битрейт" Каналы- Время - 1,5 мб, 365 дней ТВ-1,2!, Боец -1,3мб ! ---LIVE...  в архиве в два раза хуже

Link to comment
Share on other sites

Есть подозрение, что Картина транслирует уже пережатые стримы, и потом (или еще до) их пережимает на свое усмотрение, в результате качество падает, а битрейт в сравнении с качественным стримом повышается. Я приводил пример, когда стрим с разрешением 1280x720 имеет битрейт  1454 kb/s, а Картинный вариант - 720x576 и  вдвое больший битрейт 2813 kb/s. Т.е. просто необъяснимая ситуация - качество хуже, требует двойной трафик и дисковое пространство, т.е. единственное объяснение - что этот некачественный видеопоток получен задаром (а даренному коню, как говорится, в зубы не смотрят) :) 

Edited by alexsolo
Link to comment
Share on other sites

Есть подозрение, что Картина транслирует уже пережатые стримы, и потом (или еще до) их пережимает на свое усмотрение, в результате качество падает, а битрейт в сравнении с качественным стримом повышается. Я приводил пример, когда стрим с разрешением 1280x720 имеет битрейт  1454 kb/s, а Картинный вариант - 720x576 и  вдвое больший битрейт 2813 kb/s. Т.е. просто необъяснимая ситуация - качество хуже, требует двойной трафик и дисковое пространство, т.е. единственное объяснение - что этот некачественный видеопоток получен задаром (а даренному коню, как говорится, в зубы не смотрят) :)

Насчет 1280x720 с битрейтом  1454 kb/s, что то тут не так.

Но вы правы, я заметил, что видео файлы, скачанные через торрент и имеющие битрейт 1.5 мбит/с, выглядят четче чем каналы Картины с битрейтом 2.5 мбит/с.

Link to comment
Share on other sites

@Astro,

 

самое смешное, что это может проверить каждый, т.к. стрим бесплатный   :)

 

Средний битрейт - 1 Мбит.с (!!!) и это для HD 720 канала,  пик - 1.9 Мбит.с 
 
2014-11-27_140916.jpg
Edited by alexsolo
Link to comment
Share on other sites

 

@Astro,

 

самое смешное, что это может проверить каждый, т.к. стрим бесплатный   :)

 

Средний битрейт - 1 Мбит.с (!!!) и это для HD 720 канала,  пик - 1.9 Мбит.с 
 

 

Если это так, то почему все каналы не вещают в HD Ready стаким битрейтом? Зачем нужен замыленный Никелодеон с битрейтом 2.5 мбит/с, где лого канала еле читается, если можно Никелодеон HD вещать с битрейтом 1 мбит/с?

Link to comment
Share on other sites

@Astro,

 

Мне кажется, что проблема получить легально качественный поток, который лицензирован для перепродажи, иначе будет айайай. Возможно, что HD 720 стоит больше, чем SD поток (последний может быть вообще бесплатный?).

Link to comment
Share on other sites

@Astro,

 

Мне кажется, что проблема получить легально качественный поток, который лицензирован для перепродажи, иначе будет айайай. Возможно, что HD 720 стоит больше, чем SD поток (последний может быть вообще бесплатный?).

Насчет лицензий, тут лучше не углубляться в эту тему. Даже если этот некачественный источник Никелодеона бесплатен, я сомневаюсь что его можно легально ретранслировать за деньги 3-м лицам, без соответствующей лицензии.

Edited by Astro
Link to comment
Share on other sites

Я не говорю, что он нелегальный, возможно разница в цене для ретрансляции между SD и HD существенна. Пираты с torrent tv пишут, что у них стрим Nickelodeon - 1.5 Мбит.с, Nickelodeon HD 1080 - 6-8 1.5

Мбит.с

 

PS. Я скопировал кусок стрима Nickelodeon HD 1080 и конвертнул его в HD 720 (1280x720) и битрейт его, .......................................... барабанная дробь.... 1.2 Mbit/s !

Edited by alexsolo
Link to comment
Share on other sites

 

Я скопировал кусок стрима Nickelodeon HD 1080 и конвертнул его в HD 720 (1280x720) и битрейт его, .......................................... барабанная дробь.... 1.2 Mbit/s !

А качество как? Непонятно тогда, почему все файлы mkv в 720p, скачиваемые по торренту, имеют битрейт не меньше 4 мбит/с. Ведь если вы правы, можно было бы их размер уменьшить в 4 раза, а заодно и время скачки. Тоже самое насчет видео в Youtube. Там 720p с таким низким битрейтом в помине нет.

Edited by Astro
Link to comment
Share on other sites

Это ж мульт, не фильм с динамическими сценами, для фильмов и битрейт повыше нужен.

Посмотрел на кинозал тв, там этот же мультфильм идет в 720х400 с битрейтом 1500 кбит/с. Они что, мазохисты все?

Link to comment
Share on other sites

Тест качества: ТЫЦ. Это ж мульт, не фильм с динамическими сценами, для фильмов и битрейт повыше нужен.

При записи вы выставляете параметры, либо они уже вшиты в программу, которой пишите, поэтому судить о качестве нельзя.

На счет мульта вы правы при равном качестве битрейд будет ниже, так как нету столько динамических сцен

Link to comment
Share on other sites

Подитожим - получается, что в теории можно транслировать каналы в HD720 c битрейтом 1.4 - 1.5 Mbit/s (на примерах Дождь, Никелодеон HD) вместо SD качества с почти 2-х крантым битрейтом 2.5-2.8 Mbit/s (и с архивом еще худшего качества в 1.5 Mbit/s)

 

Загадка....

Link to comment
Share on other sites

Подитожим - получается, что в теории можно транслировать каналы в HD720 c битрейтом 1.4 - 1.5 Mbit/s (на примерах Дождь, Никелодеон HD) вместо SD качества с почти 2-х крантым битрейтом 2.5-2.8 Mbit/s (и с архивом еще худшего качества в 1.5 Mbit/s)

 

Загадка....

Можно и в 0,5 мб/с ужать FullHD, только смотреть это будет невозможно )))

Link to comment
Share on other sites

  • 4 months later...

 

Хотелось бы чтобы в архиве битрейт был как в прямом вещании, хотя бы за последние 48 часов.

Кстати это интересный момент! Правда не знаю на сколько технически тяжело или легко такое реализовать. Пожелание конечно передам дальше!

Есть какое нибудь продвижение по поводу повышения битрейта в архиве?

Edited by Astro
Link to comment
Share on other sites

Пока никаких продвижений на данный момент нет.

Скорее, лучше сказать интереса что-либо менять нету.

Картина - кино для домохозяек и бабушек.

жена смотрит архивы сд каналов, хд каналы затыкаются, ей качество по боку.

Link to comment
Share on other sites

Guest
This topic is now closed to further replies.
 Share

  • Recently Browsing   0 members

    • No registered users viewing this page.
×
×
  • Create New...