Jump to content

Качество канала Россия HD


Recommended Posts

В последнее время качество канала Россия HD отвратительное. Пропорции картинки меняются в зависимости от передач. Качество архива просто никуда не годится. Когда картинка статическая то ещё терпимо но как только объект начинается двигаться то качество резко ухудшается. Для примера сериал "Косатка" 11 и 12 серии

Edited by grafcable
Link to comment
Share on other sites

Если, как вы говорите, идёт такой контент от источника то как объяснить, что скачанные серии с интернета в формате hd имеют нормальное качество?

Link to comment
Share on other sites

@grafcable,

 

вы выложите дамп ffprobe скачанной серии и сравним с характеристиками потока Картина. Для примера - сейчас идет Т/с "Вероника. Потерянное счастье", 13 с. Картина выдает вполне сносный поток:

 

ffprobe.exe veronika_russia_hd.ts
ffprobe version N-66690-gf3296b9 Copyright (c) 2007-2014 the FFmpeg developers
  built on Oct  8 2014 01:09:41 with gcc 4.9.1 (GCC)
  configuration: --enable-gpl --enable-version3 --disable-w32threads --enable-avisynth --enable-bzlib --enable-fontconfig --enable-frei0r --enable-gnutls --enable-iconv --enable-libass --enable-libbluray --enable-libbs2b --enable-libcaca --enable-libfreetype --enable-li
bgme --enable-libgsm --enable-libilbc --enable-libmodplug --enable-libmp3lame --enable-libopencore-amrnb --enable-libopencore-amrwb --enable-libopenjpeg --enable-libopus --enable-librtmp --enable-libschroedinger --enable-libsoxr --enable-libspeex --enable-libtheora --en
able-libtwolame --enable-libvidstab --enable-libvo-aacenc --enable-libvo-amrwbenc --enable-libvorbis --enable-libvpx --enable-libwavpack --enable-libwebp --enable-libx264 --enable-libx265 --enable-libxavs --enable-libxvid --enable-zlib
  libavutil      54.  9.100 / 54.  9.100
  libavcodec     56.  3.101 / 56.  3.101
  libavformat    56.  7.104 / 56.  7.104
  libavdevice    56.  1.100 / 56.  1.100
  libavfilter     5.  1.103 /  5.  1.103
  libswscale      3.  1.100 /  3.  1.100
  libswresample   1.  1.100 /  1.  1.100
  libpostproc    53.  1.100 / 53.  1.100
[mpegts @ 044958c0] PES packet size mismatch
Input #0, mpegts, from 'veronika_russia_hd.ts':
  Duration: 00:01:01.57, start: 8771.559822, bitrate: 6176 kb/s
  Program 1
    Stream #0:0[0x44]: Audio: aac ([15][0][0][0] / 0x000F), 48000 Hz, stereo, fltp, 264 kb/s
    Stream #0:1[0x45]: Video: h264 (High) ([27][0][0][0] / 0x001B), yuv420p, 1920x1080 [SAR 1:1 DAR 16:9], 25 fps, 25 tbr, 90k tbn, 50 tbc

 

и с торрента:

 

Вероника. Потерянное счастье (2012) HDTV torrent08.06.2013
Видео: 1920x1080 (16:9) 25.000 fps 7 852 Kbps, 0.151 bit/pixel
Аудио: MPEG Audio 48000Hz stereo 192 Кбит/сек
Edited by alexsolo
Link to comment
Share on other sites

Эта проблема с самого начало появлением "Первого HD" и "Россия HD" на Картине. На "Первом HD" смогли не сразу устранит проблему, а на "Россия HD" до сих пор нет. Не раз об этом писал. Но после ответа: Получаем такой контент. Больше не писал. 

Link to comment
Share on other sites

сам фильм так снят, вы не заметили что между сериями реклама показывает четко и красиво, а как фильм продолжается опять размытость!

Не правда ваша. У меня есть доступ на референсный поток России HD. Никакой размытости в динамических сценах не наблюдается. Проблема в перекодировке.

Я раньше думал, что дело в банальном сокращении кадров при пережимке. Но это не так. При старте канала при буферизации пару секунд висит ключевой кадр. и часто он бывает спаян из 2х. Ощущение, что при пережимке для одного кадра используются содержание соседних. Т.е. на кадре отчетливо видно, что он состоит из 2х. Будто кто-то когдато включил этот высокохудожественный "эффект склейки/трассировки" и забыл его потом выключить. Этим и объясняется жуткое "качество" картинки в динамических сценах при нормальном битрейте.

Было бы здорово, если бы Картина (если не сама косячит) обратилась по цепочке перекодировщиков наверх и устранила этот баг. А если уже обращались, то, пожалуйста, объяснитесь. Что мешает устранить эту, в общем-то, нелепую оплошность?

Edited by gasoj
Link to comment
Share on other sites

@alexsolo

Возможно ли, что плеер телевизора не правильно переваривает эти опорные кадры? А на приставках все ок?

Edited by gasoj
Link to comment
Share on other sites

@gasoj,

 

естественно декодеры и их поведение могут быть разные! Даже на том же Самсунге D и F серии, плеер работает абсолютно поразному! На D серии HD каналы стартуют через раз, выдавая ошибку неизвестный формат потока (???), на F серии, все работает, как часы. Не мне вам рассказывать :)

 

PS. Kartina API где посмотреть новый? :)

Link to comment
Share on other sites

@alexsolo

Наблюдаются даже ключевые кадры склеенные из 2х разных сцен. Т.е. на H.264 я бы не стал грешить. Никакой кодек не будет так усложнять себе жизнь.

Возможно, что проблема появляется, когда из 30кадров/сек делают 25 посредственным алгоритмом:\

 

Присоединяюсь к просьбе по новому API.

 

P.S. Справедливости ради, F тоже грешит, но очень редко.

Edited by gasoj
Link to comment
Share on other sites

Особенно остро проблема видна на спортивных каналах типа футбол HD 1,2 и тд, при быстром движении мяча. Аналогично, фалы с тойже трансляции скаченные с интернета, показывают плавное движение. Многократное обращение в Картину ничего не дало, в лучшем случае то, что передано техникам.

Link to comment
Share on other sites

@SABASIS

Не замечал. Видна только муть. Сейчас пробовал наткнуться на ключевой кадр, сложенный из 2х. Как всегда, когда нужно - не найдешь.

Edited by gasoj
Link to comment
Share on other sites

Join the conversation

You can post now and register later. If you have an account, sign in now to post with your account.

Guest
Reply to this topic...

×   Pasted as rich text.   Paste as plain text instead

  Only 75 emoji are allowed.

×   Your link has been automatically embedded.   Display as a link instead

×   Your previous content has been restored.   Clear editor

×   You cannot paste images directly. Upload or insert images from URL.

Loading...
 Share

  • Recently Browsing   0 members

    • No registered users viewing this page.
×
×
  • Create New...