Jump to content

Recommended Posts

Компания HDI Dune выпустила новое «стабильное» обновление прошивки. Обновление прошивки имеет номер версии 110606_1315. Это обновление предоставляет много новых функций и возможностей, реализованных в ранее выпущенных бета-версиях, всем пользователям медиаплееров Dune HD.

 

Новая стабильная версия прошивки в основном эквивалентна последней бета-версии 110511_2007_beta и включает все новые функции и возможности, реализованные в этой бета-версии. Дополнительно, она включает также несколько других исправлений.

 

Компания HDI Dune также ожидает, что скоро будет выпущена новая бета-версия прошивки, которая будет включать дальнейшие новые функции и улучшения.

 

Как всегда, это обновление прошивки доступно для всех поколений медиаплееров Dune HD, включая как все новые модели, так и все устаревшие/снятые с производства модели (всего 14 моделей, базирующихся на различных платформах: Sigma Designs 863x, 864x, и 865x):

• Dune HD Ultra

• Dune HD Mini

• Dune BD Prime

• Dune HD Center

• Dune HD Base

• Dune HD Base 2.0

• Dune BD Prime 3.0

• Dune HD Base 3.0

• Dune HD Max

• Dune HD Smart H1

• Dune HD Smart D1

• Dune HD Smart B1

• Dune HD Duo

• Dune HD Lite 53D

 

Обновление прошивки можно скачать и установить либо через встроенную функцию онлайн-обновления медиаплееров Dune, либо с официального веб-сайта с прошивками Dune: http://dune-hd.com/firmware/

 

Список изменений в версии прошивки 110606_1315 по сравнению с версией 110511_2007_beta:

 

* Исправлена проблема: Настройки приложения погоды не работали в некоторых случаях.

 

* Исправлена проблема: Некоторые DVD-Video диски не могли быть корректно воспроизведены.

 

* Исправлена проблема: Распознавание NTSC/PAL могло работать некорректно при воспроизведении DVD-Video.

 

* Исправлена проблема: Неправильная аудиодорожка могла быть выбрана при переключении каналов во время воспроизведения MPEG2-TS/IPTV.

 

* Исправлена проблема: Воспроизведение видеопотоков из сети могло зависать в некоторых специфичных случаях.

 

* Обновлены переводы пользовательского интерфейса на некоторые языки.

 

* Некоторые другие исправления и улучшения.

Судя по отзывам на HDTV-Форуме я бы пока воздержался от применения, а подождал бы картиновскую версию

Edited by yermak
Link to comment
Share on other sites

у меня эта версия не играет обычные avi-файлы, которые со старой прошивкой шли на ура:

 

 

Format                           : AVI
Format/Info                      : Audio Video Interleave
Format profile                   : OpenDML
File size                        : 1.10 GiB
Duration                         : 1h 35mn
Overall bit rate                 : 1 644 Kbps

Video
ID                               : 0
Format                           : MPEG-4 Visual
Format profile                   : Simple@L1
Format settings, BVOP            : No
Format settings, QPel            : No
Format settings, GMC             : No warppoints
Format settings, Matrix          : Default (H.263)
Codec ID                         : DX50
Codec ID/Hint                    : DivX 5
Duration                         : 1h 35mn
Bit rate                         : 81.7 Kbps
Width                            : 720 pixels
Height                           : 400 pixels
Display aspect ratio             : 16:9
Frame rate                       : 25.000 fps
Color space                      : YUV
Chroma subsampling               : 4:2:0
Bit depth                        : 8 bits
Scan type                        : Progressive
Compression mode                 : Lossy
Bits/(Pixel*Frame)               : 0.011
Stream size                      : 55.7 MiB (5%)
Writing library                  : Lavc52.43.0

Audio
ID                               : 1
Format                           : MPEG Audio
Codec ID                         : 55
Codec ID/Hint                    : MP3
Duration                         : 1h 35mn
Bit rate                         : 128 Kbps
Channel(s)                       : 2 channels
Sampling rate                    : 48.0 KHz
Compression mode                 : Lossy
Stream size                      : 87.3 MiB (8%)
Alignment                        : Aligned on interleaves

 

Кто-нибудь может подтвердить?

--

Константин

Link to comment
Share on other sites

попробуйте откатиться на вашу предыдущую версию, чтобы точно проверить

я же написал, что со старой прошивкой идут ;)

 

Link to comment
Share on other sites

попробуйте откатиться на вашу предыдущую версию, чтобы точно проверить

 

С откаткой на старую версию тоже могут возникнуть проблемы.

Читайте форум dune-hd.com- там много уже чего про новую прошу

 

Link to comment
Share on other sites

у меня эта версия не играет обычные avi-файлы, которые со старой прошивкой шли на ура:

Кто-нибудь может подтвердить?

--

Константин

Подтверждаю, но только WMV файлы. Да и вообще интересно, начал смотреть клип, остановил, включил опять - пишет "Не могу воспроизвести файл"и так все до перезагрузки.

Откатил без проблем на бету.

 

Вопрос к Картиновцам: RadioTime от Вас или от Dune? У меня почему-то перестали воспроизводиться каналы от 101.ru (все: Pink Floyd, Beatles, Высоцкий и т. д.)

Link to comment
Share on other sites

Вопрос к Картиновцам: RadioTime от Вас или от Dune? У меня почему-то перестали воспроизводиться каналы от 101.ru (все: Pink Floyd, Beatles, Высоцкий и т. д.)

От Dune.

Link to comment
Share on other sites

Dune HD Smart B1

после обновления стал подвисать звук на разных каналах и в видеотеке...

приходится переключать каналы или загружать фильм по новой....

Link to comment
Share on other sites

Не мы делаем прошивки.

Откатитесь на предыдущую версию, посмотрите как на ней будет работать.

Link to comment
Share on other sites

Не мы делаем прошивки.

Откатитесь на предыдущую версию, посмотрите как на ней будет работать.

 

мы смотрели сериал на старой прошивке, усе работало, поставили новую- не пашет.

Дык к кому обращатся по поводу прошивки?

Старую не хочу обратно ставить, эта уже понавороченней будет.

Link to comment
Share on other sites

Не мы делаем прошивки.

Откатитесь на предыдущую версию, посмотрите как на ней будет работать.

 

мы смотрели сериал на старой прошивке, усе работало, поставили новую- не пашет.

Дык к кому обращатся по поводу прошивки?

Старую не хочу обратно ставить, эта уже понавороченней будет.

Попробуйте версию 2007 beta

Link to comment
Share on other sites

  • 2 weeks later...

Вопрос такой: планирует ли Картина выпустить свою версию последней прошивки от DUNE, и когда примерно?

Link to comment
Share on other sites

Вопрос такой: планирует ли Картина выпустить свою версию последней прошивки от DUNE, и когда примерно?

 

Ответ: Не мы делаем прошивки.

Link to comment
Share on other sites

Вопрос такой: планирует ли Картина выпустить свою версию последней прошивки от DUNE, и когда примерно?

 

Ответ: Не мы делаем прошивки.

Судя по отзывам на HDTV-Форуме я бы пока воздержался от применения, а подождал бы картиновскую версию

?

Link to comment
Share on other sites

Вопрос такой: планирует ли Картина выпустить свою версию последней прошивки от DUNE, и когда примерно?

 

Ответ: Не мы делаем прошивки.

Судя по отзывам на HDTV-Форуме я бы пока воздержался от применения, а подождал бы картиновскую версию

?

Прошивки пишет для нас производитель.

Link to comment
Share on other sites

каждый решает для себя что ему ставить, если привыкли к новой прошивке и все устраивает оставайтесь ,если есть мелкие недочеты и вы можете потерпеть тогда почему бы и не новая, судя по тому как они часто выходят и рост изменений думаю дальше продолжат только радовать нас новым софтом...

Link to comment
Share on other sites

Вопрос такой: планирует ли Картина выпустить свою версию последней прошивки от DUNE, и когда примерно?

 

Ответ: Не мы делаем прошивки.

Судя по отзывам на HDTV-Форуме я бы пока воздержался от применения, а подождал бы картиновскую версию

?

Прошивки пишет для нас производитель.

 

Это понятно.

Просто после того, как в марте вышла стабильная 110225_1222 от Dune, Картина представила свою ktv_110314_1500. После выхода 2007 beta на форуме поднимался вопрос: а Картина чем ответит?

А Картина, пардон, модераторы, ответила: вот выйдет стабильная, тогда мы ...

Ну вот вышла стабильная, поэтому и возник вопрос.

Насколько я помню была проблема, если сервера Dune выходят из строя, то смотреть Картину становится невозможным и где гарантия, что на последней не будет тоже самое

Edited by yermak
Link to comment
Share on other sites

у меня эта версия не играет обычные avi-файлы, которые со старой прошивкой шли на ура:

 

 

Format                           : AVI
Format/Info                      : Audio Video Interleave
Format profile                   : OpenDML
File size                        : 1.10 GiB
Duration                         : 1h 35mn
Overall bit rate                 : 1 644 Kbps

Video
ID                               : 0
Format                           : MPEG-4 Visual
Format profile                   : Simple@L1
Format settings, BVOP            : No
Format settings, QPel            : No
Format settings, GMC             : No warppoints
Format settings, Matrix          : Default (H.263)
Codec ID                         : DX50
Codec ID/Hint                    : DivX 5
Duration                         : 1h 35mn
Bit rate                         : 81.7 Kbps
Width                            : 720 pixels
Height                           : 400 pixels
Display aspect ratio             : 16:9
Frame rate                       : 25.000 fps
Color space                      : YUV
Chroma subsampling               : 4:2:0
Bit depth                        : 8 bits
Scan type                        : Progressive
Compression mode                 : Lossy
Bits/(Pixel*Frame)               : 0.011
Stream size                      : 55.7 MiB (5%)
Writing library                  : Lavc52.43.0

Audio
ID                               : 1
Format                           : MPEG Audio
Codec ID                         : 55
Codec ID/Hint                    : MP3
Duration                         : 1h 35mn
Bit rate                         : 128 Kbps
Channel(s)                       : 2 channels
Sampling rate                    : 48.0 KHz
Compression mode                 : Lossy
Stream size                      : 87.3 MiB (8%)
Alignment                        : Aligned on interleaves

 

Кто-нибудь может подтвердить?

--

Константин

 

 

 

 

1. Запустить программу "avic.exe" из пакета "AVI FourCC Changer":

http://www.divx-digest.com/software/avifourcc.html

 

2. В поле "FourCC Used Codec" прописать значение "XVID".

 

3. Нажать на кнопку выбора файла, выбрать нужный AVI-файл. Нажать кнопку "Apply".

 

Эта программа меняет 4 байта в AVI-файле, отвечающие за указание типа использованного кодека. После этого медиаплеер Dune успешно может открыть и воспроизвести AVI-файл.

 

 

 

 

Link to comment
Share on other sites

  • 2 weeks later...
На сайте Картины, в разделе "Помощь" - ошибка: прошивка 110606_1315 вышла не 14.03.2011, а 06.06.2011

Спасибо, исправим.

Link to comment
Share on other sites

Guest
This topic is now closed to further replies.
 Share

  • Recently Browsing   0 members

    • No registered users viewing this page.
×
×
  • Create New...