Jump to content

Обсуждение приставки Kartina Relax


Recommended Posts

Pinned posts

relax_s.png

Важная информация

  • Приставка оборудована как цифровым HDMI, так и аналоговым RCA AV выходом.
  • HDMI кабель входит в комплект поставки.

Технические характеристики

 

 

  • Процессор: Sigma Designs SMP8756
  • Память: 512 MB
  • Wi-Fi 2,4 ГГц (802.11b/g/n)
  • Ethernet 10/100Mbps
  • HDMI 1.4A -выход
  • 2 внешних порта USB 2.0
  • Пульт дистанционного управления

 


 
Аудио и видео кодеки/форматы

 

 

  • Максимальное разрешение 1920x1080p
  • Видео кодеки: HEVC (H.265 up to 1080p), MPEG-4.10 (H.264), MPEG-2, VC-1, WMV-9
  • Аудио кодеки: MPEG-1/2 layer I/II/III, AAC, PCM, FLAC, Vorbis, WavePack, APE, ALAC
  • Протоколы стриминга: Multicast UDP, Multicast RTP, RTSP, HLS, MPEG-DASH (with HEVC up to 1080p), HTTP, UPnP/DLNA, NFS, SMB
  • Субтитры: DVB, SRT, SUB, IDX, PGS

 


 
 Размеры и вес

 

 

  • Высота: 29,5 мм
  • Ширина: 165 мм
  • Глубина: 108 мм
  • Вес: 960 г

 

 
 
Комплект поставки

 

 

  • Приставка
  • Адаптер питания с EU или US вилкой, в зависимости от региона
  • Пульт дистанционного управления
  • HDMI-кабель
  • AV кабель
  • LAN-кабель
  • Инструкция

 

 
down.pngИНСТРУКЦИЯ

 

FAQ

 

Как сделать дамп системы?

Как полностью сбросить настройки приставки?

Что делать если сбился видеорежим?

Что делать если приставка зависла на заставке (Как перепрошить присатвку аварийно)?

Как сменить сервер авторизации?

Как настроить таймер сна?

Как скрыть или восстановить канал?

Как перематывать?

В. Как сделать так чтобы в архиве кнопки влево/вправо отвечали за перемотку, а не за изменение уровня громкости?
О. Нужно зайти в Настройки - Дополнительно - Аудио - Регулировка громкости: выбрать "Выключена" (громкость придется регулировать пультом от телевизора).

 

 

Link to comment
Share on other sites

  • 3 weeks later...

Доброго времени суток,

Вчера по случайности разбили пульт от Kartina Micro HD ,сегодня хотел заказать новый,но он стоит 10 евро,я вот призадумался может лучше добавить еще 20 и прикупить Kartina Relax.

Интернет  подключен по  wlan, приставка подключена к телевизору через HDMI,диагональ телевизора 65(разрешение 4К) -подскажите пожалуйста принесет мне чего хорошего или плохого такая замена и стоит ли её вообще делать?

Link to comment
Share on other sites

helloworld,спасибо за ответ

меня интересует целесообразность покупки,стоит ли это делать или просто заказать пульт и успокоится т.к. эти приставки одинаковы и плюсов кроме h.265 там нет(встроенным плеером я не пользуюсь).

Link to comment
Share on other sites

Целесообразность заключатеся в том, что мы планируем использовать в будущем h.265 кодек, а  у вас уже будет приставка которая его поддерживает.

Link to comment
Share on other sites

helloworld,Вы пожалуйста простите меня,но такой глупости как вы мне написали 

 

 

Целесообразность заключатеся в том, что мы планируем использовать в будущем h.265 кодек, а  у вас уже будет приставка которая его поддерживает.

 

 ну ни как не ожидал в Вашем исполнении(((( продавец вы похоже первоклассный.

 Очень признателен вам за помощь.

Link to comment
Share on other sites

helloworld,Вы пожалуйста простите меня,но такой глупости как вы мне написали 

 

 

Целесообразность заключатеся в том, что мы планируем использовать в будущем h.265 кодек, а  у вас уже будет приставка которая его поддерживает.

 

 ну ни как не ожидал в Вашем исполнении(((( продавец вы похоже первоклассный.

 Очень признателен вам за помощь.

 

А в чём глупость?

Приставки с h.265, когда доведут до ума, дадут фору остальным.

 

А Вам, уважаемый, не мешало бы научиться корректно вести беседу.

Edited by juriky
Link to comment
Share on other sites

helloworld,Вы пожалуйста простите меня,но такой глупости как вы мне написали 

 

 

Целесообразность заключатеся в том, что мы планируем использовать в будущем h.265 кодек, а  у вас уже будет приставка которая его поддерживает.

 

 ну ни как не ожидал в Вашем исполнении(((( продавец вы похоже первоклассный.

 Очень признателен вам за помощь.

 

Приставка фактически по функционалу такая же как и Micro и это собственно главное и по сути единственное отличие (такая стоит прошивка) для конечного пользователя при просмотре нашего телевидения - поддержка этого кодека, который позволяет ужимать видео сильней без потери качетва. На сколько это целесообразно решать только Вам.

 

С Уважением KartinaTV.

Link to comment
Share on other sites

А в чём глупость?

Приставки с h.265, когда доведут до ума, дадут фору остальным.

 

В слове "когда" т.е. "когда" случится "когда" -эта приставка морально устареет.

 

 

В словах " что мы планируем использовать в будущем" т.е.  наступит это "будущие"  в "необозримом будущем".

 

Думаю продолжать не стоит,сами уже надеюсь всё поняли?

 

 

juriky,а Ваш смешной "выпад" пожалуй пропущу,он вообще не к месту(так как я в самом начале своего сообщения-в первую очередь извинился),ну разве если вы только хотели "Леща" кинуть "админу".

Edited by helloworld
Link to comment
Share on other sites

Это будущее не за горами, тестирование уже ведется прямо сейчас.

 

Предлагаю далее снизить градус общения в сторону более уважительного друг к другу.

Link to comment
Share on other sites

Предлагаю далее снизить градус общения в сторону более уважительного друг к другу.

Так я только " за" и обеими руками )))))

 

 

Это будущее не за горами, тестирование уже ведется прямо сейчас.

 

 

а можно пруф или хотя бы инфу ,что вы собираетесь кодировать этим кодеком.

Как быть остальным пользователям у кого не будет поддержки этого кодека. т.е получается людям придется менять приставки или  им просто  будут недоступны к просмотру определенные каналы или определенный контент в видеотеке,а может я чего не понимаю?

  Edited by druck
Link to comment
Share on other sites

Ведется закрытое бета тестирование в котором участвуют участники форума по совместительству наши клиенты. Прогресс не стоит на месте, тем кто захочет просматривать каналы сжатые этим кодеком нужно будет купить новые приставки. Остальные же будут смотреть все как и прежде.

Link to comment
Share on other sites

тем кто захочет просматривать каналы сжатые этим кодеком нужно будет купить новые приставки. Остальные же будут смотреть все как и прежде.

предельно ясно и доходчиво.Осталось теперь только дождаться "когда"...........,но идея превосходная.

30евро не деньги,пожалуй куплю приставку,поверю Вам на слово и буду ждать наступления "когда".

Спасибо за помощь.

Edited by druck
Link to comment
Share on other sites

Нет, dune 204 аппаратно декодирует hevc (сейчас таких железок немного, но становится все больше). Kodi - вообще не ясно каким боком к Dune. DASH HEVC - это протокол адаптивного стримминга (повышение/понижение битрейта потока в зависимости от ширины канала)

Edited by alexsolo
Link to comment
Share on other sites

Обратил внимание, приставка очень греется.
Надолго ли хватит?
Мощный процессор-это хорошо, но как бы не аукнулось.
Кто-то обратил внимание?
После часа работы очень горячий внизу.

Link to comment
Share on other sites

Обратил внимание, приставка очень греется.

Надолго ли хватит?

Мощный процессор-это хорошо, но как бы не аукнулось.

Кто-то обратил внимание?

После часа работы очень горячий внизу.

 

горячая

Link to comment
Share on other sites

Обратил внимание, приставка очень греется.

Надолго ли хватит?

Мощный процессор-это хорошо, но как бы не аукнулось.

Кто-то обратил внимание?

После часа работы очень горячий внизу.

да, есть такое)

Link to comment
Share on other sites

У меня Dune Lite например очень сильно грелась и в stendby режиме, прикладываешь руку и чувствуется именно. что горячо, а не просто теплая поверхность, потом просто перестал на это обращать внимание и всегда на всех дюнах выставляю действие кнопки "power" - "выключение питания", в том числе сейчас и на Relax. Да она греется во время работы.

Link to comment
Share on other sites

Если это Дюна ТВ-204, то в соседней форуме написано вот что: Позвонил в Dune магазин и спросил, а, что же с 204 версией. Получил ответ, что она очень сильно грелась из-за процессора и поэтому вышла ограниченным тиражем.

Link to comment
Share on other sites

Приобрёл Relax, к сожалению нет звука некоторых видео по USB.
Может кто -то подскажет, почему.
Вот пример:

 

 

Общее
Полное имя                               : F:\Djon.karter.2012.D.HDRip.1400MB.avi
Формат                                   : AVI
Формат/Информация                        : Audio Video Interleave
Размер файла                             : 1,37 Гбайт
Продолжительность                        : 2 ч. 12 м.
Общий поток                              : 1484 Кбит/сек
Программа кодирования                    : VirtualDubMod 1.5.10.2 (build 2540/release)
Библиотека кодирования                   : VirtualDubMod build 2540/release

Видео
Идентификатор                            : 0
Формат                                   : MPEG-4 Visual
Профиль формата                          : Advanced Simple@L5
Параметр BVOP формата                    : 1
Параметр QPel формата                    : Нет
Параметр GMC формата                     : Без точки перехода
Параметр матрицы формата                 : Default (MPEG)
Идентификатор кодека                     : XVID
Идентификатор кодека/Подсказка           : XviD
Продолжительность                        : 2 ч. 12 м.
Битрейт                                  : 1091 Кбит/сек
Ширина                                   : 720 пикселей
Высота                                   : 304 пикселя
Соотношение сторон                       : 2,35:1
Частота кадров                           : 23,976 кадра/сек
Цветовое пространство                    : YUV
Субдискретизация насыщенности            : 4:2:0
Битовая глубина                          : 8 бит
Тип развёртки                            : Прогрессивная
Метод сжатия                             : С потерями
Бит/(Пиксели*Кадры)                      : 0.208
Размер потока                            : 1,01 Гбайт (73%)
Библиотека кодирования                   : XviD 1.2.1 (UTC 2008-12-04)

Аудио
Идентификатор                            : 1
Формат                                   : AC-3
Формат/Информация                        : Audio Coding 3
Расширение режима                        : CM (complete main)
Параметр Endianness формата              : Big
Идентификатор кодека                     : 2000
Продолжительность                        : 2 ч. 12 м.
Вид битрейта                             : Постоянный
Битрейт                                  : 384 Кбит/сек
Каналы                                   : 6 каналов
Расположение каналов                     : Front: L C R, Side: L R, LFE
Частота                                  : 48,0 КГц
Метод сжатия                             : С потерями
Размер потока                            : 363 Мбайт (26%)
Выравнивание                             : Разделение по промежуткам
Продолжительность промежутка             : 42  мс. (1,00 видеокадр)
Время предзагрузки промежутка            : 500  мс.

 

Ещё пример:

 

Общее
Полное имя                               : F:\Libre.et.assoupi.2014.P.HDRip.avi
Формат                                   : AVI
Формат/Информация                        : Audio Video Interleave
Размер файла                             : 1,36 Гбайт
Продолжительность                        : 1 ч. 30 м.
Общий поток                              : 2151 Кбит/сек
Режиссёр                                 : NikomaxDj
Программа кодирования                    : VirtualDubMod 1.5.10.3 | www.virtualdub-fr.org || (build 2550/release)

Видео
Идентификатор                            : 0
Формат                                   : MPEG-4 Visual
Профиль формата                          : Advanced Simple@L5
Параметр BVOP формата                    : 2
Параметр QPel формата                    : Нет
Параметр GMC формата                     : Без точки перехода
Параметр матрицы формата                 : Выборочная
Идентификатор кодека                     : XVID
Идентификатор кодека/Подсказка           : XviD
Продолжительность                        : 1 ч. 30 м.
Битрейт                                  : 1949 Кбит/сек
Ширина                                   : 720 пикселей
Высота                                   : 304 пикселя
Соотношение сторон                       : 2,35:1
Частота кадров                           : 23,976 кадра/сек
Цветовое пространство                    : YUV
Субдискретизация насыщенности            : 4:2:0
Битовая глубина                          : 8 бит
Тип развёртки                            : Прогрессивная
Метод сжатия                             : С потерями
Бит/(Пиксели*Кадры)                      : 0.371
Размер потока                            : 1,24 Гбайт (91%)
Библиотека кодирования                   : XviD 1.2.1 (UTC 2008-12-04)

Аудио
Идентификатор                            : 1
Формат                                   : AC-3
Формат/Информация                        : Audio Coding 3
Расширение режима                        : CM (complete main)
Параметр Endianness формата              : Big
Идентификатор кодека                     : 2000
Продолжительность                        : 1 ч. 30 м.
Вид битрейта                             : Постоянный
Битрейт                                  : 192 Кбит/сек
Каналы                                   : 2 канала
Расположение каналов                     : Front: L R
Частота                                  : 48,0 КГц
Метод сжатия                             : С потерями
Размер потока                            : 125 Мбайт (9%)
Выравнивание                             : Разделение по промежуткам
Продолжительность промежутка             : 42  мс. (1,00 видеокадр)
Время предзагрузки промежутка            : 500  мс.

 

 

Телик подключён к приставке AV-кабелем.

 

А это, к примеру идёт со звуком:

 

Общее
Полное имя                               : F:\Manie - Der Film.mp4
Формат                                   : MPEG-4
Профиль формата                          : Base Media / Version 2
Идентификатор кодека                     : mp42
Размер файла                             : 975 Мбайт
Продолжительность                        : 16 м.
Общий поток                              : 8270 Кбит/сек
Дата кодирования                         : UTC 2015-06-14 14:14:44
Дата пометки                             : UTC 2015-06-14 14:14:44

Видео
Идентификатор                            : 1
Формат                                   : AVC
Формат/Информация                        : Advanced Video Codec
Профиль формата                          : Baseline@L4
Параметр CABAC формата                   : Нет
Параметр ReFrames формата                : 2 кадра
Параметр GOP формата                     : M=1, N=30
Идентификатор кодека                     : avc1
Идентификатор кодека/Информация          : Advanced Video Coding
Продолжительность                        : 16 м.
Продолжительность оригинала              : 16 м.
Битрейт                                  : 7753 Кбит/сек
Ширина                                   : 1920 пикселей
Высота                                   : 1080 пикселей
Соотношение сторон                       : 16:9
Режим частоты кадров                     : Постоянный
Частота кадров                           : 29,970 кадров/сек
Цветовое пространство                    : YUV
Субдискретизация насыщенности            : 4:2:0
Битовая глубина                          : 8 бит
Тип развёртки                            : Прогрессивная
Бит/(Пиксели*Кадры)                      : 0.125
Размер потока                            : 914 Мбайт (94%)
Размер потока оригинала                  : 953 Мбайт (98%)
Дата кодирования                         : UTC 2015-06-14 14:14:44
Дата пометки                             : UTC 2015-06-14 14:14:44
mdhd_Duration                            : 988554

Аудио
Идентификатор                            : 2
Формат                                   : AAC
Формат/Информация                        : Advanced Audio Codec
Профиль формата                          : LC
Идентификатор кодека                     : 40
Продолжительность                        : 16 м.
Вид битрейта                             : Постоянный
Битрейт                                  : 180 Кбит/сек
Номинальный битрейт                      : 192 Кбит/сек
Каналы                                   : 2 канала
Расположение каналов                     : Front: L R
Частота                                  : 48,0 КГц
Метод сжатия                             : С потерями
Размер потока                            : 21,2 Мбайт (2%)
Дата кодирования                         : UTC 2015-06-14 14:14:44
Дата пометки                             : UTC 2015-06-14 14:14:44
mdhd_Duration                            : 988587

 

Edited by juriky
Link to comment
Share on other sites

Жду сообщения, в противном случае буду высылать приставку обратно, как бракованную.

Прошивка стоит 150703_0033_b9b4

Edited by juriky
Link to comment
Share on other sites

  • helloworld changed the title to Обсуждение приставки Kartina Relax

Join the conversation

You can post now and register later. If you have an account, sign in now to post with your account.

Guest
Reply to this topic...

×   Pasted as rich text.   Paste as plain text instead

  Only 75 emoji are allowed.

×   Your link has been automatically embedded.   Display as a link instead

×   Your previous content has been restored.   Clear editor

×   You cannot paste images directly. Upload or insert images from URL.

Loading...
 Share

  • Recently Browsing   0 members

    No registered users viewing this page.

×
×
  • Create New...