Jump to content

Recommended Posts

Получил от картины HD 301, видеотека с русскими и буржуйскими фильмами, 2 недели архив работает. напрягает, что при записывании передачи светится в левом верхнем углу экрана здоровеная красная точка, что отвлекает от просмотра.
HD 301 узнаёт внешний жёсткий диск через раз, приходится прибор отлючать и снова включать.
Не знаю от чего, но при записи с HD 301 , ну к примеру с канала Россия Культура я хочу TS в MPEG без потери качества заремуксить (прога - VideoReDo, не выходит может кто знает что тут не так. я не хочу конвертировать, тольо ремиксить. с компа VideoReDo узнаёт и режет/ремуксит без нареканий. Спасибо

Link to comment
Share on other sites

здоровеная красная точка

 

1.Легко убираецца в настройках....

2.ЖД полумёртвый.

3.Пользуйся нормальными прогами.

Link to comment
Share on other sites

 

здоровеная красная точка

 

1.Легко убираецца в настройках....

2.ЖД полумёртвый.

3.Пользуйся нормальными прогами.

предложи какую другую прогу! протестирую

Link to comment
Share on other sites

jedinike, ottoman, Regen - спасибо, нет это всё не то, нужна прога, которая в моём MPEG-TS укажет на эти параметры,

Видео: MPEG4 Video (H264), 1920x1080, (16:9), 25 fps, 13.5 Mbps, 0.26 bit/pixel

Аудио: AAC, stereo, 48 kHz, 6 channels, 256 kbps

тк. их я к сожалению не вижу.

Edited by dean8
Link to comment
Share on other sites

Действительно есть отдельные программы, но очевидно, что проще видеть информацию в "инструментах" практически любого проигрывателя.

Link to comment
Share on other sites

Действительно есть отдельные программы, но очевидно, что проще видеть информацию в "инструментах" практически любого проигрывателя.

спасибо, в плеерах не видно, VideoInspector выдаёт, но его инфа куцая, нет того, что я ищу, MediaInfo тоже слепая (это относится к HDTV 720p или 1080i)

Edited by dean8
Link to comment
Share on other sites

 

Действительно есть отдельные программы, но очевидно, что проще видеть информацию в "инструментах" практически любого проигрывателя.

спасибо, в плеерах не видно, VideoInspector выдаёт, но его инфа куцая, нет того, что я ищу, MediaInfo тоже слепая (это относится к HDTV 720p или 1080i)

Media Player Classic - Home Cinema, например. Там в file - properties - mediainfo - все что надо есть.

Edited by ottoman
Link to comment
Share on other sites

 

 

Действительно есть отдельные программы, но очевидно, что проще видеть информацию в "инструментах" практически любого проигрывателя.

спасибо, в плеерах не видно, VideoInspector выдаёт, но его инфа куцая, нет того, что я ищу, MediaInfo тоже слепая (это относится к HDTV 720p или 1080i)

Media Player Classic - Home Cinema, например. Там в file - properties - mediainfo - все что надо есть.

нет, к сожалению, нету там нужной мне инфы, завтра вам скриншотик выдам, для наглядности так сказать

Link to comment
Share on other sites

Чего ждать до завтра, вот пример:

 

 

General

Complete name                  : C:\Users\HOME\Videos\6-Year-Old Aaralyn Scream Her Original Song,  Zombie Skin  - America's Got Talent.mp4

Format                         : MPEG-4

Format profile                 : Base Media

Codec ID                       : isom

File size                      : 178 MiB

Duration                       : 5mn 27s

Overall bit rate mode          : Variable

Overall bit rate               : 4 562 Kbps

Encoded date                   : UTC 2013-06-25 00:09:59

Tagged date                    : UTC 2013-06-25 00:09:59

Writing application            : Lavf54.63.104

Video

ID                             : 1

Format                         : AVC

Format/Info                    : Advanced Video Codec

Format profile                 : High@L4.0

Format settings, CABAC         : Yes

Format settings, ReFrames      : 1 frame

Codec ID                       : avc1

Codec ID/Info                  : Advanced Video Coding

Duration                       : 5mn 27s

Bit rate                       : 4 496 Kbps

Width                          : 1 920 pixels

Height                         : 1 080 pixels

Display aspect ratio           : 16:9

Frame rate mode                : Constant

Frame rate                     : 25.000 fps

Color space                    : YUV

Chroma subsampling             : 4:2:0

Bit depth                      : 8 bits

Scan type                      : Progressive

Bits/(Pixel*Frame)             : 0.087

Stream size                    : 172 MiB (97%)

Writing library                : x264 core 129

Encoding settings              : cabac=1 / ref=1 / deblock=1:0:0 / analyse=0x3:0x113 / me=dia / subme=2 / psy=1 / psy_rd=1.00:0.00 / mixed_ref=0 / me_range=16 / chroma_me=0 / trellis=0 / 8x8dct=1 / cqm=0 / deadzone=21,11 / fast_pskip=1 / chroma_qp_offset=0 / threads=8 / lookahead_threads=1 / sliced_threads=0 / nr=0 / decimate=1 / interlaced=0 / bluray_compat=0 / constrained_intra=0 / bframes=0 / weightp=2 / keyint=250 / keyint_min=25 / scenecut=40 / intra_refresh=0 / rc_lookahead=40 / rc=abr / mbtree=1 / bitrate=4496 / ratetol=1.0 / qcomp=0.60 / qpmin=10 / qpmax=51 / qpstep=4 / ip_ratio=1.41 / aq=1:1.00

Encoded date                   : UTC 2013-06-25 00:09:59

Tagged date                    : UTC 2013-06-25 00:09:59

Audio

ID                             : 2

Format                         : AAC

Format/Info                    : Advanced Audio Codec

Format profile                 : LC

Codec ID                       : 40

Duration                       : 5mn 27s

Duration_FirstFrame            : 70ms

Bit rate mode                  : Variable

Bit rate                       : 151 Kbps

Maximum bit rate               : 176 Kbps

Channel(s)                     : 2 channels

Channel positions              : Front: L R

Sampling rate                  : 44.1 KHz

Compression mode               : Lossy

Stream size                    : 5.89 MiB (3%)

Encoded date                   : UTC 2013-06-25 00:09:59

Tagged date                    : UTC 2013-06-25 00:09:59

 

 

Link to comment
Share on other sites

Чего ждать до завтра, вот пример:

 

 

General

Complete name                  : C:\Users\HOME\Videos\6-Year-Old Aaralyn Scream Her Original Song,  Zombie Skin  - America's Got Talent.mp4

Format                         : MPEG-4

Format profile                 : Base Media

Codec ID                       : isom

File size                      : 178 MiB

Duration                       : 5mn 27s

Overall bit rate mode          : Variable

Overall bit rate               : 4 562 Kbps

Encoded date                   : UTC 2013-06-25 00:09:59

Tagged date                    : UTC 2013-06-25 00:09:59

Writing application            : Lavf54.63.104

Video

ID                             : 1

Format                         : AVC

Format/Info                    : Advanced Video Codec

Format profile                 : High@L4.0

Format settings, CABAC         : Yes

Format settings, ReFrames      : 1 frame

Codec ID                       : avc1

Codec ID/Info                  : Advanced Video Coding

Duration                       : 5mn 27s

Bit rate                       : 4 496 Kbps

Width                          : 1 920 pixels

Height                         : 1 080 pixels

Display aspect ratio           : 16:9

Frame rate mode                : Constant

Frame rate                     : 25.000 fps

Color space                    : YUV

Chroma subsampling             : 4:2:0

Bit depth                      : 8 bits

Scan type                      : Progressive

Bits/(Pixel*Frame)             : 0.087

Stream size                    : 172 MiB (97%)

Writing library                : x264 core 129

Encoding settings              : cabac=1 / ref=1 / deblock=1:0:0 / analyse=0x3:0x113 / me=dia / subme=2 / psy=1 / psy_rd=1.00:0.00 / mixed_ref=0 / me_range=16 / chroma_me=0 / trellis=0 / 8x8dct=1 / cqm=0 / deadzone=21,11 / fast_pskip=1 / chroma_qp_offset=0 / threads=8 / lookahead_threads=1 / sliced_threads=0 / nr=0 / decimate=1 / interlaced=0 / bluray_compat=0 / constrained_intra=0 / bframes=0 / weightp=2 / keyint=250 / keyint_min=25 / scenecut=40 / intra_refresh=0 / rc_lookahead=40 / rc=abr / mbtree=1 / bitrate=4496 / ratetol=1.0 / qcomp=0.60 / qpmin=10 / qpmax=51 / qpstep=4 / ip_ratio=1.41 / aq=1:1.00

Encoded date                   : UTC 2013-06-25 00:09:59

Tagged date                    : UTC 2013-06-25 00:09:59

Audio

ID                             : 2

Format                         : AAC

Format/Info                    : Advanced Audio Codec

Format profile                 : LC

Codec ID                       : 40

Duration                       : 5mn 27s

Duration_FirstFrame            : 70ms

Bit rate mode                  : Variable

Bit rate                       : 151 Kbps

Maximum bit rate               : 176 Kbps

Channel(s)                     : 2 channels

Channel positions              : Front: L R

Sampling rate                  : 44.1 KHz

Compression mode               : Lossy

Stream size                    : 5.89 MiB (3%)

Encoded date                   : UTC 2013-06-25 00:09:59

Tagged date                    : UTC 2013-06-25 00:09:59

 

 

спасибо, но это MP4, а теперь с MPEG-TS (1080i)тоже самое? :ph34r:

Link to comment
Share on other sites

 

Чего ждать до завтра, вот пример:

 

 

General

Complete name                  : C:\Users\HOME\Videos\6-Year-Old Aaralyn Scream Her Original Song,  Zombie Skin  - America's Got Talent.mp4

Format                         : MPEG-4

Format profile                 : Base Media

Codec ID                       : isom

File size                      : 178 MiB

Duration                       : 5mn 27s

Overall bit rate mode          : Variable

Overall bit rate               : 4 562 Kbps

Encoded date                   : UTC 2013-06-25 00:09:59

Tagged date                    : UTC 2013-06-25 00:09:59

Writing application            : Lavf54.63.104

Video

ID                             : 1

Format                         : AVC

Format/Info                    : Advanced Video Codec

Format profile                 : High@L4.0

Format settings, CABAC         : Yes

Format settings, ReFrames      : 1 frame

Codec ID                       : avc1

Codec ID/Info                  : Advanced Video Coding

Duration                       : 5mn 27s

Bit rate                       : 4 496 Kbps

Width                          : 1 920 pixels

Height                         : 1 080 pixels

Display aspect ratio           : 16:9

Frame rate mode                : Constant

Frame rate                     : 25.000 fps

Color space                    : YUV

Chroma subsampling             : 4:2:0

Bit depth                      : 8 bits

Scan type                      : Progressive

Bits/(Pixel*Frame)             : 0.087

Stream size                    : 172 MiB (97%)

Writing library                : x264 core 129

Encoding settings              : cabac=1 / ref=1 / deblock=1:0:0 / analyse=0x3:0x113 / me=dia / subme=2 / psy=1 / psy_rd=1.00:0.00 / mixed_ref=0 / me_range=16 / chroma_me=0 / trellis=0 / 8x8dct=1 / cqm=0 / deadzone=21,11 / fast_pskip=1 / chroma_qp_offset=0 / threads=8 / lookahead_threads=1 / sliced_threads=0 / nr=0 / decimate=1 / interlaced=0 / bluray_compat=0 / constrained_intra=0 / bframes=0 / weightp=2 / keyint=250 / keyint_min=25 / scenecut=40 / intra_refresh=0 / rc_lookahead=40 / rc=abr / mbtree=1 / bitrate=4496 / ratetol=1.0 / qcomp=0.60 / qpmin=10 / qpmax=51 / qpstep=4 / ip_ratio=1.41 / aq=1:1.00

Encoded date                   : UTC 2013-06-25 00:09:59

Tagged date                    : UTC 2013-06-25 00:09:59

Audio

ID                             : 2

Format                         : AAC

Format/Info                    : Advanced Audio Codec

Format profile                 : LC

Codec ID                       : 40

Duration                       : 5mn 27s

Duration_FirstFrame            : 70ms

Bit rate mode                  : Variable

Bit rate                       : 151 Kbps

Maximum bit rate               : 176 Kbps

Channel(s)                     : 2 channels

Channel positions              : Front: L R

Sampling rate                  : 44.1 KHz

Compression mode               : Lossy

Stream size                    : 5.89 MiB (3%)

Encoded date                   : UTC 2013-06-25 00:09:59

Tagged date                    : UTC 2013-06-25 00:09:59

 

 

спасибо, но это MP4, а теперь с MPEG-TS (1080i)тоже самое? :ph34r:

Хотите сказать, если TS  1080i, то информации нет? Я не нашел у себя такого именно файла чтобы проверить.

Edited by jedinike
Link to comment
Share on other sites

 

 

Чего ждать до завтра, вот пример:

 

 

General

Complete name                  : C:\Users\HOME\Videos\6-Year-Old Aaralyn Scream Her Original Song,  Zombie Skin  - America's Got Talent.mp4

Format                         : MPEG-4

Format profile                 : Base Media

Codec ID                       : isom

File size                      : 178 MiB

Duration                       : 5mn 27s

Overall bit rate mode          : Variable

Overall bit rate               : 4 562 Kbps

Encoded date                   : UTC 2013-06-25 00:09:59

Tagged date                    : UTC 2013-06-25 00:09:59

Writing application            : Lavf54.63.104

Video

ID                             : 1

Format                         : AVC

Format/Info                    : Advanced Video Codec

Format profile                 : High@L4.0

Format settings, CABAC         : Yes

Format settings, ReFrames      : 1 frame

Codec ID                       : avc1

Codec ID/Info                  : Advanced Video Coding

Duration                       : 5mn 27s

Bit rate                       : 4 496 Kbps

Width                          : 1 920 pixels

Height                         : 1 080 pixels

Display aspect ratio           : 16:9

Frame rate mode                : Constant

Frame rate                     : 25.000 fps

Color space                    : YUV

Chroma subsampling             : 4:2:0

Bit depth                      : 8 bits

Scan type                      : Progressive

Bits/(Pixel*Frame)             : 0.087

Stream size                    : 172 MiB (97%)

Writing library                : x264 core 129

Encoding settings              : cabac=1 / ref=1 / deblock=1:0:0 / analyse=0x3:0x113 / me=dia / subme=2 / psy=1 / psy_rd=1.00:0.00 / mixed_ref=0 / me_range=16 / chroma_me=0 / trellis=0 / 8x8dct=1 / cqm=0 / deadzone=21,11 / fast_pskip=1 / chroma_qp_offset=0 / threads=8 / lookahead_threads=1 / sliced_threads=0 / nr=0 / decimate=1 / interlaced=0 / bluray_compat=0 / constrained_intra=0 / bframes=0 / weightp=2 / keyint=250 / keyint_min=25 / scenecut=40 / intra_refresh=0 / rc_lookahead=40 / rc=abr / mbtree=1 / bitrate=4496 / ratetol=1.0 / qcomp=0.60 / qpmin=10 / qpmax=51 / qpstep=4 / ip_ratio=1.41 / aq=1:1.00

Encoded date                   : UTC 2013-06-25 00:09:59

Tagged date                    : UTC 2013-06-25 00:09:59

Audio

ID                             : 2

Format                         : AAC

Format/Info                    : Advanced Audio Codec

Format profile                 : LC

Codec ID                       : 40

Duration                       : 5mn 27s

Duration_FirstFrame            : 70ms

Bit rate mode                  : Variable

Bit rate                       : 151 Kbps

Maximum bit rate               : 176 Kbps

Channel(s)                     : 2 channels

Channel positions              : Front: L R

Sampling rate                  : 44.1 KHz

Compression mode               : Lossy

Stream size                    : 5.89 MiB (3%)

Encoded date                   : UTC 2013-06-25 00:09:59

Tagged date                    : UTC 2013-06-25 00:09:59

 

 

спасибо, но это MP4, а теперь с MPEG-TS (1080i)тоже самое? :ph34r:

Хотите сказать, если TS  1080i, то информации нет? Я не нашел у себя такого именно файла чтобы проверить.

Именно это я и хотел сказать! инфы нужной нету

Link to comment
Share on other sites

т.е. для MP4 есть а для TS нету. Правильно?

 

 

 

Чего ждать до завтра, вот пример:
 


General
Complete name                  : C:\Users\HOME\Videos\6-Year-Old Aaralyn Scream Her Original Song,  Zombie Skin  - America's Got Talent.mp4
Format                         : MPEG-4
Format profile                 : Base Media
Codec ID                       : isom
File size                      : 178 MiB
Duration                       : 5mn 27s
Overall bit rate mode          : Variable
Overall bit rate               : 4 562 Kbps
Encoded date                   : UTC 2013-06-25 00:09:59
Tagged date                    : UTC 2013-06-25 00:09:59
Writing application            : Lavf54.63.104
Video
ID                             : 1
Format                         : AVC
Format/Info                    : Advanced Video Codec
Format profile                 : High@L4.0
Format settings, CABAC         : Yes
Format settings, ReFrames      : 1 frame
Codec ID                       : avc1
Codec ID/Info                  : Advanced Video Coding
Duration                       : 5mn 27s
Bit rate                       : 4 496 Kbps
Width                          : 1 920 pixels
Height                         : 1 080 pixels
Display aspect ratio           : 16:9
Frame rate mode                : Constant
Frame rate                     : 25.000 fps
Color space                    : YUV
Chroma subsampling             : 4:2:0
Bit depth                      : 8 bits
Scan type                      : Progressive
Bits/(Pixel*Frame)             : 0.087
Stream size                    : 172 MiB (97%)
Writing library                : x264 core 129
Encoding settings              : cabac=1 / ref=1 / deblock=1:0:0 / analyse=0x3:0x113 / me=dia / subme=2 / psy=1 / psy_rd=1.00:0.00 / mixed_ref=0 / me_range=16 / chroma_me=0 / trellis=0 / 8x8dct=1 / cqm=0 / deadzone=21,11 / fast_pskip=1 / chroma_qp_offset=0 / threads=8 / lookahead_threads=1 / sliced_threads=0 / nr=0 / decimate=1 / interlaced=0 / bluray_compat=0 / constrained_intra=0 / bframes=0 / weightp=2 / keyint=250 / keyint_min=25 / scenecut=40 / intra_refresh=0 / rc_lookahead=40 / rc=abr / mbtree=1 / bitrate=4496 / ratetol=1.0 / qcomp=0.60 / qpmin=10 / qpmax=51 / qpstep=4 / ip_ratio=1.41 / aq=1:1.00
Encoded date                   : UTC 2013-06-25 00:09:59
Tagged date                    : UTC 2013-06-25 00:09:59
Audio
ID                             : 2
Format                         : AAC
Format/Info                    : Advanced Audio Codec
Format profile                 : LC
Codec ID                       : 40
Duration                       : 5mn 27s
Duration_FirstFrame            : 70ms
Bit rate mode                  : Variable
Bit rate                       : 151 Kbps
Maximum bit rate               : 176 Kbps
Channel(s)                     : 2 channels
Channel positions              : Front: L R
Sampling rate                  : 44.1 KHz
Compression mode               : Lossy
Stream size                    : 5.89 MiB (3%)
Encoded date                   : UTC 2013-06-25 00:09:59
Tagged date                    : UTC 2013-06-25 00:09:59

 

спасибо, но это MP4, а теперь с MPEG-TS (1080i)тоже самое? :ph34r:

Хотите сказать, если TS  1080i, то информации нет? Я не нашел у себя такого именно файла чтобы проверить.

Именно это я и хотел сказать! инфы нужной нету

Edited by ottoman
Link to comment
Share on other sites

 

т.е. для MP4 есть а для TS нету. Правильно?

 

 

 

Чего ждать до завтра, вот пример:

 

 

General

Complete name                  : C:\Users\HOME\Videos\6-Year-Old Aaralyn Scream Her Original Song,  Zombie Skin  - America's Got Talent.mp4

Format                         : MPEG-4

Format profile                 : Base Media

Codec ID                       : isom

File size                      : 178 MiB

Duration                       : 5mn 27s

Overall bit rate mode          : Variable

Overall bit rate               : 4 562 Kbps

Encoded date                   : UTC 2013-06-25 00:09:59

Tagged date                    : UTC 2013-06-25 00:09:59

Writing application            : Lavf54.63.104

Video

ID                             : 1

Format                         : AVC

Format/Info                    : Advanced Video Codec

Format profile                 : High@L4.0

Format settings, CABAC         : Yes

Format settings, ReFrames      : 1 frame

Codec ID                       : avc1

Codec ID/Info                  : Advanced Video Coding

Duration                       : 5mn 27s

Bit rate                       : 4 496 Kbps

Width                          : 1 920 pixels

Height                         : 1 080 pixels

Display aspect ratio           : 16:9

Frame rate mode                : Constant

Frame rate                     : 25.000 fps

Color space                    : YUV

Chroma subsampling             : 4:2:0

Bit depth                      : 8 bits

Scan type                      : Progressive

Bits/(Pixel*Frame)             : 0.087

Stream size                    : 172 MiB (97%)

Writing library                : x264 core 129

Encoding settings              : cabac=1 / ref=1 / deblock=1:0:0 / analyse=0x3:0x113 / me=dia / subme=2 / psy=1 / psy_rd=1.00:0.00 / mixed_ref=0 / me_range=16 / chroma_me=0 / trellis=0 / 8x8dct=1 / cqm=0 / deadzone=21,11 / fast_pskip=1 / chroma_qp_offset=0 / threads=8 / lookahead_threads=1 / sliced_threads=0 / nr=0 / decimate=1 / interlaced=0 / bluray_compat=0 / constrained_intra=0 / bframes=0 / weightp=2 / keyint=250 / keyint_min=25 / scenecut=40 / intra_refresh=0 / rc_lookahead=40 / rc=abr / mbtree=1 / bitrate=4496 / ratetol=1.0 / qcomp=0.60 / qpmin=10 / qpmax=51 / qpstep=4 / ip_ratio=1.41 / aq=1:1.00

Encoded date                   : UTC 2013-06-25 00:09:59

Tagged date                    : UTC 2013-06-25 00:09:59

Audio

ID                             : 2

Format                         : AAC

Format/Info                    : Advanced Audio Codec

Format profile                 : LC

Codec ID                       : 40

Duration                       : 5mn 27s

Duration_FirstFrame            : 70ms

Bit rate mode                  : Variable

Bit rate                       : 151 Kbps

Maximum bit rate               : 176 Kbps

Channel(s)                     : 2 channels

Channel positions              : Front: L R

Sampling rate                  : 44.1 KHz

Compression mode               : Lossy

Stream size                    : 5.89 MiB (3%)

Encoded date                   : UTC 2013-06-25 00:09:59

Tagged date                    : UTC 2013-06-25 00:09:59

 

 

спасибо, но это MP4, а теперь с MPEG-TS (1080i)тоже самое? :ph34r:

Хотите сказать, если TS  1080i, то информации нет? Я не нашел у себя такого именно файла чтобы проверить.

Именно это я и хотел сказать! инфы нужной нету

с MP4 я ещё не проверял, но с MPEG-TS 1080i инфа не 100%-я

Link to comment
Share on other sites

для сравнения показываю на вашем видео чего я не вижу в MPEG-TS (выделил жирным шрифтом, чего нет в отчёте по MPEG-TS)

 

Complete name                  : C:\Users\HOME\Videos\6-Year-Old Aaralyn Scream Her Original Song,  Zombie Skin  - America's Got Talent.mp4
Format                         : MPEG-4
Overall bit rate               : 4 562 Kbps
Video
ID                             : 1
Format                         : AVC
Format/Info                    : Advanced Video Codec
Bit rate                       : 4 496 Kbps
Width                          : 1 920 pixels
Height                         : 1 080 pixels
Display aspect ratio           : 16:9
Bits/(Pixel*Frame)             : 0.087
Audio
ID                             : 2
Format                         : AAC
Format/Info                    : Advanced Audio Codec
Bit rate                       : 151 Kbps
Maximum bit rate               : 176 Kbps

 

Link to comment
Share on other sites

Спасибо - теперь ясно, должно показывать инфу одинаково. Видимо что-то с TS файлoм. Как нибудь с Картины запишу и проверю для интереса.

Link to comment
Share on other sites

я делал запись с Россия HD канала (с компа), попробую с записью с Картина HD 301 на HD каналах. Спасибо за вашу помощь!

Link to comment
Share on other sites

я делал запись с Россия HD канала (с компа), попробую с записью с Картина HD 301 на HD каналах. Спасибо за вашу помощь!

Подтверждаю, записанный с картины на приставку TS видео файл, не выдает полную информацию.  Для чего нужно знать именно эти данные?

Link to comment
Share on other sites

 

я делал запись с Россия HD канала (с компа), попробую с записью с Картина HD 301 на HD каналах. Спасибо за вашу помощь!

Подтверждаю, записанный с картины на приставку TS видео файл, не выдает полную информацию.  Для чего нужно знать именно эти данные?

хороший вопрос! мне нужен, если я фильм на форуме расшариваю, имеются требования показывать инфу о видео/аудио качестве. :blink:

Link to comment
Share on other sites

Guest
This topic is now closed to further replies.
 Share

  • Recently Browsing   0 members

    • No registered users viewing this page.
×
×
  • Create New...